Satyameva Jayate Full Movie Free Download In 720p HQ PreDVDRip Encoded In x264 In AAC Audio.

Satyameva Jayate Full Movie Free Download In 720p PreDVDRip

Details Of Full Length Free Videos

Title: Satyameva Jayate 2018 Movie
Genres: Action | Thriller
Country: India
Language: Hindi
Release Date: 15 August 2018
Quality: 720p HQ PreDVDRip x264
Format: MKV
Size: 1.1-GB

IMDb

Storyline

Satyameva Jayate 2018 Movie Free Download In 720p and Watch Online There are about 2 Lakh policemen in Mumbai. Tasked with the safety of this enormous city, a majority of them don’t necessarily have the “cleanest” of vardis. When four such police inspectors are burnt alive in a series of merciless killings, the entire police force is rocked with terror. The media is looking for answers. The public is on the fence over these killings. These crimes reflect Vir as a person. Bold, Calculating, and Unapologetic. He’s not scared of killing, or dying. It was clear that he had an agenda. A reason. A drive; behind these deaths and he was far from done. Fearing the next attack, the Commissioner calls upon their best bet to catch Vir. DCP Shivansh is what a proper policeman looks like. Strong, Courageous, Patriotic and most importantly, “Clean.” And of course, he’s the best at what he does. What follows is a succession of events that will test his Probity to the fullest. He is up against Vir, who is a vigilante and will stop at nothing to complete his mission. …

Satyameva Jayate (Hindi pronunciation: [sət̪jəmeːʋə dʒəjət̪eː]; transl. Truth alone triumphs) is a 2018 Indian vigilante action film directed by Milap Zaveri. It was released on 15 August 2018.

The shooting for the film began on 5 March 2018 and the first look of the film was released on 5 April 2018. The official trailer for the film was released on 28 June 2018. The film was released on 15 August 2018. It received mixed reviews from critics.

Cast

  • John Abraham as Virendra Rathod(Veer)
  • Manoj Bajpayee as DCP Shivansh Rathod
  • Aisha Sharma as Shikha
  • Amruta Khanvilkar as Sarita, Shivansh’s wife
  • Tota Roy Chowdhury as Mrinal Sharma
  • Devdatta Nage as inspector Shankar Gaikwad
  • Nora Fatehi as herself (special appearance in song “Dilbar”)

Video File Details

Video File Details

General
Unique ID : 328060792940359249116538986697135913177 (0xF6CE35E1621E573973051CD7A76278D9)
Complete name : www.MovCr.com – Satyameva Jayate (2018) Hindi 720p HQ PreDVDRip x264 AAC – 1GB [MovCr].mkv
Format : Matroska
Format version : Version 4 / Version 2
File size : 1 022 MiB
Duration : 2 h 15 min
Overall bit rate : 1 058 kb/s
Movie name : www.MovCr.com
Encoded date : UTC 2018-08-15 19:13:20
Writing application : mkvmerge v23.0.0 (‘The Bride Said No’) 64-bit
Writing library : libebml v1.3.6 + libmatroska v1.4.9

Video
ID : 1
Format : AVC
Format/Info : Advanced Video Codec
Format profile : [email protected]
Format settings : CABAC / 2 Ref Frames
Format settings, CABAC : Yes
Format settings, RefFrames : 2 frames
Format settings, GOP : M=1, N=25
Codec ID : V_MPEG4/ISO/AVC
Duration : 2 h 15 min
Bit rate : 860 kb/s
Width : 1 280 pixels
Height : 544 pixels
Display aspect ratio : 2.35:1
Frame rate mode : Constant
Frame rate : 25.000 FPS
Color space : YUV
Chroma subsampling : 4:2:0
Bit depth : 8 bits
Scan type : Progressive
Bits/(Pixel*Frame) : 0.049
Stream size : 831 MiB (81%)
Title : www.MovCr.com
Default : Yes
Forced : No

Audio
ID : 2
Format : AAC
Format/Info : Advanced Audio Codec
Format profile : LC
Codec ID : A_AAC-2
Duration : 2 h 15 min
Bit rate : 192 kb/s
Channel(s) : 2 channels
Channel positions : Front: L R
Sampling rate : 48.0 kHz
Frame rate : 46.875 FPS (1024 SPF)
Compression mode : Lossy
Stream size : 189 MiB (18%)
Title : www.MovCr.com
Language : Hindi
Default : Yes
Forced : No

Images, Screenshots Of Full Episodes

Some Images Of Satyameva Jayate 2018 Movie 720p PreDVDRip

Satyameva Jayate Full Movie Free Download In 720p PreDVDRip

Satyameva Jayate Full Movie Free Download In 720p PreDVDRip

Satyameva Jayate Full Movie Free Download In 720p PreDVDRip

Satyameva Jayate Full Movie Free Download In 720p PreDVDRip

Satyameva Jayate Full Movie Free Download In 720p PreDVDRip

Satyameva Jayate Full Movie Free Download In 720p PreDVDRip

Satyameva Jayate Full Movie Free Download In 720p PreDVDRip

Satyameva Jayate Full Movie Free Download In 720p PreDVDRip

Satyameva Jayate Full Movie Free Download In 720p PreDVDRip

Satyameva Jayate Full Movie Free Download In 720p PreDVDRip

Watch The Full HD 720p, 1080p Movie Trailers

Watch Satyameva Jayate 2018 Full Hindi Movie Trailer

Direct Download Links Of Satyameva Jayate 2018 Full Movie 720p HQ PreDVDRip Given Below

Free Download Direct Links HD

Direct Links For Premium Users

If you are the member of this site then enter your login details and Enjoy Direct Links

2 Comments

  1. Debendra Mohanty

    August 17, 2018 at 10:24 am

    Please add asap the new series of zee5 Lock Down by badsha ?

    Reply

  2. Saksham

    August 20, 2018 at 6:37 pm

    Bhai Satyamev Jayate movie download nii ho rii h Aisa Ku??

    Reply

Leave a Reply

Your email address will not be published. Required fields are marked *

Check Also

Dogs Season 1 [Netflix] – Complete

Dogs Season 1 Netflix Documentary Full Episodes Download In 720p WEBRip Quality Encoded In…