Red 2010 Hindi Dubbed Full Movie Download In 720p BluRay HD Quality Encoded In x264 MKV With English Subtitles.

Red 2010 Hindi Dubbed Full Movie Download 720p BluRay HD, Subtitles

Details Of Full Length Free Videos

Title: Red 2010
Genres: Action | Comedy | Crime | Thriller
Country: USA
Language: Hindi | English
Release Date: 15 October 2010
Quality: 720p BluRay x264
Subtitle: English
Format: MKV
Size: 804-MB

IMDb

Storyline Of Red 2010 Film

Red 2010 Movie In Hindi Dubbed Free Download Frank (Bruce Willis) is retired, bored, and lonely living off his government pension in a nondescript suburb in an equally nondescript house. The only joy in Frank’s life is his calls to the government pension processing center when he gets to talk to his case worker, Sarah (Mary-Louis Parker). Red 2010 Hindi Dubbed With English Subtitles Sarah is as bored and lonely as Frank and marks her conversations with the unknown Frank and her spy novels as the only things fun in her life. When something in Frank’s past forces Frank back into his old line of work and puts an unwitting Sarah in the middle of the intrigue, Frank and Sarah begin a journey into Frank’s past and the people he used to work with. Like Frank they are all RED … Retired Extremely Dangerous.

About

Hindi Dubbed RED is a 2010 American action comedy film based on the limited comic-book series of the same name created by Warren Ellis and Cully Hamner and published by the DC Comics imprint Homage. The film stars Bruce Willis, Morgan Freeman, John Malkovich, Mary-Louise Parker, Helen Mirren, and Karl Urban, with German film director Robert Schwentke directing a screenplay by Jon Hoeber and Erich Hoeber. Red 2010 Movie Download With Subtitles In the film version, the title is derived from the designation of former Central Intelligence Agency (CIA) Agent Frank Moses (Bruce Willis), meaning “Retired, Extremely Dangerous”.

The film was released on October 15, 2010. It grossed $199 million worldwide. In 2011, the film received a Golden Globe nomination for Best Musical or Comedy Film. A sequel, Red 2, was released on July 19, 2013. Another sequel, Red 3, is in development.

Cast Of Red 2010 Hindi Movie:

  • Bruce Willis as Francis “Frank” Moses
  • Morgan Freeman as Joe Matheson
  • John Malkovich as Marvin Boggs
  • Helen Mirren as Victoria Winslow
  • Karl Urban as William Cooper
  • Mary-Louise Parke as Sarah Ross
  • Rebecca Pidgeon as Cynthia Wilkes
  • Brian Cox as Ivan Simanov
  • Richard Dreyfuss as Alexander Dunning
  • Julian McMahon as Vice President Robert Stanton
  • Ernest Borgnine as Henry, The Records Keeper
  • James Remar as Gabriel Singer

MKV File Details

MKV File Details

General
Format : Matroska
Format version : Version 4 / Version 2
File size : 803 MiB
Duration : 1 h 51 min
Overall bit rate : 1 009 kb/s

Video
ID : 1
Format : AVC
Format/Info : Advanced Video Codec
Format profile : [email protected]
Format settings : CABAC / 6 Ref Frames
Format settings, CABAC : Yes
Format settings, RefFrames : 6 frames
Codec ID : V_MPEG4/ISO/AVC
Duration : 1 h 51 min Red 2010 Subtitles
Bit rate : 787 kb/s
Width : 1 280 pixels
Height : 528 pixels
Display aspect ratio : 2.40:1
Frame rate mode : Constant
Frame rate : 23.976 (24000/1001) FPS
Color space : YUV
Chroma subsampling : 4:2:0
Bit depth : 8 bits
Scan type : Progressive
Bits/(Pixel*Frame) : 0.049
Stream size : 625 MiB (78%)
Writing library : x264 core 120 r2164 da19765
Default : Yes
Forced : No

Audio #1
ID : 2
Format : AAC
Format/Info : Advanced Audio Codec
Format profile : LC
Codec ID : A_AAC-2
Duration : 1 h 51 min Red 2010 In Hindi
Bit rate : 128 kb/s
Channel(s) : 2 channels
Channel positions : Front: L R
Sampling rate : 48.0 kHz
Frame rate : 46.875 FPS (1024 SPF)
Compression mode : Lossy
Stream size : 102 MiB (13%)
Language : Hindi
Default : Yes
Forced : No

Audio #2
ID : 3
Format : AAC
Format/Info : Advanced Audio Codec
Format profile : LC
Codec ID : A_AAC-2
Duration : 1 h 51 min
Bit rate : 92.0 kb/s
Channel(s) : 2 channels
Channel positions : Front: L R
Sampling rate : 48.0 kHz
Frame rate : 46.875 FPS (1024 SPF)
Compression mode : Lossy
Stream size : 73.1 MiB (9%)
Language : English
Default : No
Forced : No

Text
ID : 4
Format : UTF-8
Codec ID : S_TEXT/UTF8
Codec ID/Info : UTF-8 Plain Text Red 2010 720p BluRay
Duration : 1 h 42 min
Bit rate : 43 b/s
Count of elements : 1238
Stream size : 33.1 KiB (0%)
Default : Yes
Forced : No

Images, Screenshots Of Full Episodes

Some Images Of Red 2010 Hindi Dubbed 720p BluRay x264 Full Movie

Red 2010 Hindi Dubbed Full Movie Download 720p BluRay HD, Subtitles

Red 2010 Hindi Dubbed Full Movie Download 720p BluRay HD, Subtitles

Red 2010 Hindi Dubbed Full Movie Download 720p BluRay HD, Subtitles

Red 2010 Hindi Dubbed Full Movie Download 720p BluRay HD, Subtitles

Red 2010 Hindi Dubbed Full Movie Download 720p BluRay HD, Subtitles

Red 2010 Hindi Dubbed Full Movie Download 720p BluRay HD, Subtitles

Red 2010 Hindi Dubbed Full Movie Download 720p BluRay HD, Subtitles

Watch The Full HD 720p, 1080p Movie Trailers

Watch Red 2010 Full Movie Trailer

Direct Download Links Of Red 2010 Hindi Dubbed Full Movie In 720p BluRay Given Below

Free Download Direct Links HD

Direct Links For Premium Users

If you are the member of this site then enter your login details and Enjoy Direct Links

Leave a Reply

Your email address will not be published. Required fields are marked *

Check Also

Narcos Mexico Season 1 – Complete

Narcos Mexico Season 1 Free Download With English Subtitles In 720p WEBRip HD Quality Enco…