Blockers 2018 Movie Download With English + Hindi Subtitles 720p BluRay HD Quality Encoded In x264 MKV.

Blockers 2018 Hindi Subtitles Movie Download 720p BluRay English Audio

Details Of Full Length Free Videos

Title: Blockers 2018
Genres: Comedy
Country: USA
Language: English
Release Date: 6 April 2018
Quality: 720p BluRay x264
Subtitle: Hindi | English
Format: MKV
Size: 896-MB

IMDb

Storyline

Blockers 2018 Movie Download 720p HD With Hindi + English Subtitles Three parents try to stop their daughters from losing their virginity on prom night.

Blockers is a 2018 American sex comedy film directed by Kay Cannon (in her directorial debut) and written by Brian Kehoe and Jim Kehoe. The film stars Leslie Mann, Ike Barinholtz, and John Cena as a trio of parents who try to stop their daughters (Kathryn Newton, Geraldine Viswanathan, and Gideon Adlon) from Blockers 2018 Hindi Subtitles Download losing their virginity on prom night. The film’s title and posters are a reference to the act of “cockblocking”; the rooster icon was removed for advertising on broadcast television and cable networks that objected, with only the Blockers text being shown Blockers 2018 English Subtitles.

The film premiered at South by Southwest on March 10, 2018, and was theatrically released in the United States on April 6, 2018, by Universal Pictures. It grossed $93 million worldwide and received generally positive reviews from critics, with praise for its “humor and performances”, as well as for “intelligence and empathy” not often found in the genre.

Cast Of Blockers 2018 Movie:

  • Leslie Mann as Lisa Decker, Julie’s single mother
  • Ike Barinholtz as Hunter, Sam’s narcisstic father who cheated on his wife, leading to divorce
  • John Cena as Mitchell, Kayla’s overprotective, emotional and sports obsessed father
  • Kathryn Newton as Julie Decker, Lisa’s daughter
  • Amelia Oswald and Audrey Casson as 12-year-old Julie
  • Anniston Almond as 5-year-old Julie
  • Aubree McGuire as Young Julie
  • Geraldine Viswanathan as Kayla, Mitchell and Marcie’s daughter
  • Anjal Jain as 12-year-old Kayla
  • Noor Anna Maher as 5-year-old Kayla
  • Gideon Adlon as Sam, Hunter’s daughter
  • Hannah Goergen as 5-year-old Sam
  • Graham Phillips as Austin, Julie’s boyfriend
  • Miles Robbins as Connor, Kayla’s prom date
  • Jimmy Bellinger as Chad, Sam’s prom date
  • June Diane Raphael as Brenda, Sam’s mother and Hunter’s ex-wife
  • Jake Picking as Kyler
  • Hannibal Buress as Frank, Sam’s stepfather
  • Sarayu Blue as Marcie, Mitchell’s wife and Kayla’s mother
  • Gary Cole as Ron, Cathy’s husband and Austin’s father
  • Colton Dunn as Rudy, an overeager limo driver
  • Gina Gershon as Cathy, Ron’s wife and Austin’s mother
  • Ramona Young as Angelica, Sam’s crush
  • T.C. Carter as Jayden

MKV File Details

MKV File Details

Video
ID : 1
Format : AVC Blockers 2018 Full Movie Hindi Subtitles Download
Format/Info : Advanced Video Codec
Format profile : [email protected]
Format settings : CABAC / 4 Ref Frames
Format settings, CABAC : Yes
Format settings, RefFrames : 4 frames
Codec ID : V_MPEG4/ISO/AVC
Duration : 1 h 41 min
Bit rate : 1 050 kb/s
Width : 1 280 pixels
Height : 534 pixels
Display aspect ratio : 2.40:1
Original display aspect ratio : 2.40:1
Frame rate mode : Constant
Frame rate : 23.976 (24000/1001) FPS
Color space : YUV
Chroma subsampling : 4:2:0
Bit depth : 8 bits
Scan type : Progressive
Bits/(Pixel*Frame) : 0.064
Stream size : 765 MiB (86%)
Title : MoviesMB.com
Language : English
Default : Yes
Forced : No

Audio
ID : 2
Format : AAC Blockers 2018 720p Movie Download English Subtitles
Format/Info : Advanced Audio Codec
Format profile : LC
Codec ID : A_AAC-2
Duration : 1 h 41 min
Bit rate : 129 kb/s
Channel(s) : 2 channels
Channel positions : Front: L R
Sampling rate : 48.0 kHz
Frame rate : 46.875 FPS (1024 SPF)
Compression mode : Lossy
Delay relative to video : -43 ms
Stream size : 94.1 MiB (11%)
Language : English
Default : Yes
Forced : No

Text #1
ID : 3
Format : PGS
Muxing mode : zlib
Codec ID : S_HDMV/PGS
Codec ID/Info : Picture based subtitle format used on BDs/HD-DVDs
Duration : 1 h 41 min
Bit rate : 43.1 kb/s
Count of elements : 4092
Stream size : 31.1 MiB (4%)
Language : Hindi
Default : Yes
Forced : No

Text #2
ID : 4
Format : PGS
Muxing mode : zlib
Codec ID : S_HDMV/PGS
Codec ID/Info : Picture based subtitle format used on BDs/HD-DVDs
Duration : 1 h 34 min
Bit rate : 68.3 kb/s
Count of elements : 4467
Stream size : 46.1 MiB (5%)
Language : English
Default : No
Forced : No

Images, Screenshots Of Full Episodes

Some Images Of Blockers 2018 Hindi Subtitled 720p BluRay x264 Full Movie

Blockers 2018 Hindi Subtitles Movie Download 720p BluRay English Audio

Blockers 2018 Hindi Subtitles Movie Download 720p BluRay English Audio

Blockers 2018 Hindi Subtitles Movie Download 720p BluRay English Audio

Blockers 2018 Hindi Subtitles Movie Download 720p BluRay English Audio

Blockers 2018 Hindi Subtitles Movie Download 720p BluRay English Audio

Watch The Full HD 720p, 1080p Movie Trailers

Watch Blockers 2018 Official Trailer

Direct Download Links Of Blockers 2018 Full Movie With [Hindi + English] Subtitles 720p BluRay Given Below

Free Download Direct Links HD

Direct Links For Premium Users

If you are the member of this site then enter your login details and Enjoy Direct Links

Leave a Reply

Your email address will not be published. Required fields are marked *

Check Also

Narcos Mexico Season 1 – Complete

Narcos Mexico Season 1 Free Download With English Subtitles In 720p WEBRip HD Quality Enco…